999
dxfrw 0.5.11
0
SECTION
2
HEADER
9
$ACADVER
1
AC1021
9
$HANDSEED
5
20000
9
$DWGCODEPAGE
3
ANSI_1252
9
$INSBASE
10
0
20
0
30
0
9
$EXTMIN
10
-10.303088629
20
-14.1971028014
30
0
9
$EXTMAX
10
30
20
9.25479135669
30
0
9
$LIMMIN
10
0
20
0
9
$LIMMAX
10
420
20
297
9
$ORTHOMODE
70
0
9
$LTSCALE
40
1
9
$TEXTSTYLE
7
STANDARD
9
$CLAYER
8
deck dimensions
9
$DIMASZ
40
0.25
9
$DIMLFAC
40
1
9
$DIMSCALE
40
2
9
$DIMEXO
40
0.0625
9
$DIMEXE
40
0.125
9
$DIMTXT
40
0.25
9
$DIMTSZ
40
0
9
$DIMAUNIT
70
0
9
$DIMADEC
70
2
9
$DIMLUNIT
70
2
9
$DIMSTYLE
2
STANDARD
9
$DIMGAP
40
0.0625
9
$DIMTIH
70
0
9
$LUNITS
70
2
9
$LUPREC
70
3
9
$AUNITS
70
0
9
$AUPREC
70
2
9
$SPLINESEGS
70
8
9
$GRIDMODE
70
0
9
$SNAPSTYLE
70
0
9
$GRIDUNIT
10
0
20
0
9
$PINSBASE
10
0
20
0
30
0
9
$PLIMMIN
10
0
20
0
9
$PLIMMAX
10
0.2794
20
0.2159
9
$INSUNITS
70
6
9
$PSVPSCALE
40
1
0
ENDSEC
0
SECTION
2
CLASSES
0
ENDSEC
0
SECTION
2
TABLES
0
TABLE
2
VPORT
5
8
330
0
100
AcDbSymbolTable
70
1
0
VPORT
5
31
330
2
100
AcDbSymbolTableRecord
100
AcDbViewportTableRecord
2
*ACTIVE
70
0
10
0
20
0
11
1
21
1
12
20.545756213
22
5.06454488298
13
0
23
0
14
10
24
10
15
10
25
10
16
0
26
0
36
1
17
0
27
0
37
0
40
24.2523001021
41
2.069828722
42
50
43
0
44
0
50
0
51
0
71
0
72
100
73
1
74
3
75
0
76
0
77
0
78
0
281
0
65
1
110
0
120
0
130
0
111
1
121
0
131
0
112
0
122
1
132
0
79
0
146
0
348
10020
60
7
61
5
292
1
282
1
141
0
142
0
63
250
421
3358443
0
ENDTAB
0
TABLE
2
LTYPE
5
5
330
0
100
AcDbSymbolTable
70
4
0
LTYPE
5
14
330
5
100
AcDbSymbolTableRecord
100
AcDbLinetypeTableRecord
2
ByBlock
70
0
3

72
65
73
0
40
0
0
LTYPE
5
15
330
5
100
AcDbSymbolTableRecord
100
AcDbLinetypeTableRecord
2
ByLayer
70
0
3

72
65
73
0
40
0
0
LTYPE
5
16
330
5
100
AcDbSymbolTableRecord
100
AcDbLinetypeTableRecord
2
Continuous
70
0
3
Solid line
72
65
73
0
40
0
0
LTYPE
5
32
330
5
100
AcDbSymbolTableRecord
100
AcDbLinetypeTableRecord
2
DOT
70
0
3
Dot . . . . . . . . . . . . . . . . . . . . . .
72
65
73
2
40
6.35
49
0
74
0
49
-6.35
74
0
0
LTYPE
5
33
330
5
100
AcDbSymbolTableRecord
100
AcDbLinetypeTableRecord
2
DOT2
70
0
3
Dot (.5x) .....................................
72
65
73
2
40
3.175
49
0
74
0
49
-3.175
74
0
0
LTYPE
5
34
330
5
100
AcDbSymbolTableRecord
100
AcDbLinetypeTableRecord
2
DOTX2
70
0
3
Dot (2x) .  .  .  .  .  .  .  .  .  .  .  .  .
72
65
73
2
40
12.7
49
0
74
0
49
-12.7
74
0
0
LTYPE
5
35
330
5
100
AcDbSymbolTableRecord
100
AcDbLinetypeTableRecord
2
DASHED
70
0
3
Dot . . . . . . . . . . . . . . . . . . . . . .
72
65
73
2
40
19.05
49
12.7
74
0
49
-6.35
74
0
0
LTYPE
5
36
330
5
100
AcDbSymbolTableRecord
100
AcDbLinetypeTableRecord
2
DASHED2
70
0
3
Dashed (.5x) _ _ _ _ _ _ _ _ _ _ _ _ _ _ _ _ _
72
65
73
2
40
9.525
49
6.35
74
0
49
-3.175
74
0
0
LTYPE
5
37
330
5
100
AcDbSymbolTableRecord
100
AcDbLinetypeTableRecord
2
DASHEDX2
70
0
3
Dashed (2x) ____  ____  ____  ____  ____  ___
72
65
73
2
40
38.1
49
25.4
74
0
49
-12.7
74
0
0
LTYPE
5
38
330
5
100
AcDbSymbolTableRecord
100
AcDbLinetypeTableRecord
2
DASHDOT
70
0
3
Dash dot __ . __ . __ . __ . __ . __ . __ . __
72
65
73
4
40
25.4
49
12.7
74
0
49
-6.35
74
0
49
0
74
0
49
-6.35
74
0
0
LTYPE
5
39
330
5
100
AcDbSymbolTableRecord
100
AcDbLinetypeTableRecord
2
DASHDOT2
70
0
3
Dash dot (.5x) _._._._._._._._._._._._._._._.
72
65
73
4
40
12.7
49
6.35
74
0
49
-3.175
74
0
49
0
74
0
49
-3.175
74
0
0
LTYPE
5
3A
330
5
100
AcDbSymbolTableRecord
100
AcDbLinetypeTableRecord
2
DASHDOTX2
70
0
3
Dash dot (2x) ____  .  ____  .  ____  .  ___
72
65
73
4
40
50.8
49
25.4
74
0
49
-12.7
74
0
49
0
74
0
49
-12.7
74
0
0
LTYPE
5
3B
330
5
100
AcDbSymbolTableRecord
100
AcDbLinetypeTableRecord
2
DIVIDE
70
0
3
Divide ____ . . ____ . . ____ . . ____ . . ____
72
65
73
6
40
31.75
49
12.7
74
0
49
-6.35
74
0
49
0
74
0
49
-6.35
74
0
49
0
74
0
49
-6.35
74
0
0
LTYPE
5
3C
330
5
100
AcDbSymbolTableRecord
100
AcDbLinetypeTableRecord
2
DIVIDE2
70
0
3
Divide (.5x) __..__..__..__..__..__..__..__.._
72
65
73
6
40
15.875
49
6.35
74
0
49
-3.175
74
0
49
0
74
0
49
-3.175
74
0
49
0
74
0
49
-3.175
74
0
0
LTYPE
5
3D
330
5
100
AcDbSymbolTableRecord
100
AcDbLinetypeTableRecord
2
DIVIDEX2
70
0
3
Divide (2x) ________  .  .  ________  .  .  _
72
65
73
6
40
63.5
49
25.4
74
0
49
-12.7
74
0
49
0
74
0
49
-12.7
74
0
49
0
74
0
49
-12.7
74
0
0
LTYPE
5
3E
330
5
100
AcDbSymbolTableRecord
100
AcDbLinetypeTableRecord
2
BORDER
70
0
3
Border __ __ . __ __ . __ __ . __ __ . __ __ .
72
65
73
6
40
44.45
49
12.7
74
0
49
-6.35
74
0
49
12.7
74
0
49
-6.35
74
0
49
0
74
0
49
-6.35
74
0
0
LTYPE
5
3F
330
5
100
AcDbSymbolTableRecord
100
AcDbLinetypeTableRecord
2
BORDER2
70
0
3
Border (.5x) __.__.__.__.__.__.__.__.__.__.__.
72
65
73
6
40
22.225
49
6.35
74
0
49
-3.175
74
0
49
6.35
74
0
49
-3.175
74
0
49
0
74
0
49
-3.175
74
0
0
LTYPE
5
40
330
5
100
AcDbSymbolTableRecord
100
AcDbLinetypeTableRecord
2
BORDERX2
70
0
3
Border (2x) ____  ____  .  ____  ____  .  ___
72
65
73
6
40
88.9
49
25.4
74
0
49
-12.7
74
0
49
25.4
74
0
49
-12.7
74
0
49
0
74
0
49
-12.7
74
0
0
LTYPE
5
41
330
5
100
AcDbSymbolTableRecord
100
AcDbLinetypeTableRecord
2
CENTER
70
0
3
Center ____ _ ____ _ ____ _ ____ _ ____ _ ____
72
65
73
4
40
50.8
49
31.75
74
0
49
-6.35
74
0
49
6.35
74
0
49
-6.35
74
0
0
LTYPE
5
42
330
5
100
AcDbSymbolTableRecord
100
AcDbLinetypeTableRecord
2
CENTER2
70
0
3
Center (.5x) ___ _ ___ _ ___ _ ___ _ ___ _ ___
72
65
73
4
40
28.575
49
19.05
74
0
49
-3.175
74
0
49
3.175
74
0
49
-3.175
74
0
0
LTYPE
5
43
330
5
100
AcDbSymbolTableRecord
100
AcDbLinetypeTableRecord
2
CENTERX2
70
0
3
Center (2x) ________  __  ________  __  _____
72
65
73
4
40
101.6
49
63.5
74
0
49
-12.7
74
0
49
12.7
74
0
49
-12.7
74
0
0
ENDTAB
0
TABLE
2
LAYER
5
2
330
0
100
AcDbSymbolTable
70
1
0
LAYER
5
10
330
2
100
AcDbSymbolTableRecord
100
AcDbLayerTableRecord
2
0
70
0
62
7
6
CONTINUOUS
370
0
390
F
0
LAYER
5
44
330
2
100
AcDbSymbolTableRecord
100
AcDbLayerTableRecord
2
auxiliary
70
1
62
7
6
CONTINUOUS
370
0
390
F
0
LAYER
5
45
330
2
100
AcDbSymbolTableRecord
100
AcDbLayerTableRecord
2
deck
70
0
62
1
6
CONTINUOUS
370
0
390
F
0
LAYER
5
46
330
2
100
AcDbSymbolTableRecord
100
AcDbLayerTableRecord
2
deck (dashed)
70
0
62
1
6
DASHED2
370
0
390
F
0
LAYER
5
47
330
2
100
AcDbSymbolTableRecord
100
AcDbLayerTableRecord
2
deck dimensions
70
0
62
7
6
CONTINUOUS
370
0
390
F
0
LAYER
5
48
330
2
100
AcDbSymbolTableRecord
100
AcDbLayerTableRecord
2
deck dimensions (dash dot)
70
0
62
7
6
DASHDOT2
370
0
390
F
0
LAYER
5
49
330
2
100
AcDbSymbolTableRecord
100
AcDbLayerTableRecord
2
girders
70
0
62
96
420
32768
6
CONTINUOUS
370
0
390
F
0
LAYER
5
4A
330
2
100
AcDbSymbolTableRecord
100
AcDbLayerTableRecord
2
girders auxiliary
70
1
62
96
420
32768
6
CONTINUOUS
370
0
390
F
0
LAYER
5
4B
330
2
100
AcDbSymbolTableRecord
100
AcDbLayerTableRecord
2
girders dimensions
70
0
62
96
420
32768
6
CONTINUOUS
370
0
390
F
0
LAYER
5
4C
330
2
100
AcDbSymbolTableRecord
100
AcDbLayerTableRecord
2
temp
70
0
62
7
6
CONTINUOUS
370
0
390
F
0
LAYER
5
4D
330
2
100
AcDbSymbolTableRecord
100
AcDbLayerTableRecord
2
variation distances
70
1
62
5
6
CONTINUOUS
370
0
390
F
0
ENDTAB
0
TABLE
2
STYLE
5
3
330
0
100
AcDbSymbolTable
70
3
0
STYLE
5
4E
330
2
100
AcDbSymbolTableRecord
100
AcDbTextStyleTableRecord
2
standard
70
0
40
0
41
1
50
0
71
0
42
1
3
standard
4

0
STYLE
5
4F
330
2
100
AcDbSymbolTableRecord
100
AcDbTextStyleTableRecord
2
STANDARD
70
0
40
0
41
1
50
0
71
0
42
1
3
STANDARD
4

0
ENDTAB
0
TABLE
2
VIEW
5
6
330
0
100
AcDbSymbolTable
70
0
0
ENDTAB
0
TABLE
2
UCS
5
7
330
0
100
AcDbSymbolTable
70
0
0
ENDTAB
0
TABLE
2
APPID
5
9
330
0
100
AcDbSymbolTable
70
1
0
APPID
5
12
330
9
100
AcDbSymbolTableRecord
100
AcDbRegAppTableRecord
2
ACAD
70
0
0
ENDTAB
0
TABLE
2
DIMSTYLE
5
A
330
0
100
AcDbSymbolTable
70
1
100
AcDbDimStyleTable
71
1
0
DIMSTYLE
105
50
330
A
100
AcDbSymbolTableRecord
100
AcDbDimStyleTableRecord
2
Standard
70
0
40
1
41
0.25
42
0.0625
43
0.38
44
0.125
45
0
46
0
47
0
48
0
140
0.25
141
0.09
142
0
143
25.4
144
1
145
0
146
1
147
0.0625
148
0
71
0
72
0
73
0
74
1
75
0
76
0
77
0
78
0
79
0
170
0
171
2
172
0
173
0
174
0
175
0
176
0
177
0
178
0
179
0
271
4
272
4
273
2
274
2
275
0
276
0
277
2
278
46
279
0
280
0
281
0
282
0
283
1
284
0
285
0
286
0
288
0
289
3
340
Standard
341

371
-2
372
-2
0
ENDTAB
0
TABLE
2
BLOCK_RECORD
5
1
330
0
100
AcDbSymbolTable
70
2
0
BLOCK_RECORD
5
1F
330
1
100
AcDbSymbolTableRecord
100
AcDbBlockTableRecord
2
*Model_Space
70
0
280
1
281
0
0
BLOCK_RECORD
5
1E
330
1
100
AcDbSymbolTableRecord
100
AcDbBlockTableRecord
2
*Paper_Space
70
0
280
1
281
0
0
BLOCK_RECORD
5
51
330
1
100
AcDbSymbolTableRecord
100
AcDbBlockTableRecord
2
*D5
70
0
280
1
281
0
0
BLOCK_RECORD
5
54
330
1
100
AcDbSymbolTableRecord
100
AcDbBlockTableRecord
2
*D2
70
0
280
1
281
0
0
BLOCK_RECORD
5
57
330
1
100
AcDbSymbolTableRecord
100
AcDbBlockTableRecord
2
*D3
70
0
280
1
281
0
0
BLOCK_RECORD
5
5A
330
1
100
AcDbSymbolTableRecord
100
AcDbBlockTableRecord
2
*D1
70
0
280
1
281
0
0
BLOCK_RECORD
5
5D
330
1
100
AcDbSymbolTableRecord
100
AcDbBlockTableRecord
2
*D4
70
0
280
1
281
0
0
ENDTAB
0
ENDSEC
0
SECTION
2
BLOCKS
0
BLOCK
5
20
330
1F
100
AcDbEntity
8
0
100
AcDbBlockBegin
2
*Model_Space
70
0
10
0
20
0
30
0
3
*Model_Space
1

0
ENDBLK
5
21
330
1F
100
AcDbEntity
8
0
100
AcDbBlockEnd
0
BLOCK
5
1C
330
1B
100
AcDbEntity
8
0
100
AcDbBlockBegin
2
*Paper_Space
70
0
10
0
20
0
30
0
3
*Paper_Space
1

0
ENDBLK
5
1D
330
1F
100
AcDbEntity
8
0
100
AcDbBlockEnd
0
BLOCK
5
52
330
51
100
AcDbEntity
8
0
100
AcDbBlockBegin
2
*D5
70
1
10
0
20
0
3
*D5
1

0
LINE
5
60
100
AcDbEntity
8
deck dimensions
6
CONTINUOUS
62
7
370
0
100
AcDbLine
10
20.9291917877
20
6
11
20.9291917877
21
-6.60210106193e-017
0
SOLID
5
61
100
AcDbEntity
8
deck dimensions
6
CONTINUOUS
62
7
370
0
100
AcDbTrace
10
20.9291917877
20
6
30
0
11
21.0124487193
21
5.5
31
0
12
20.8459348562
22
5.5
32
0
13
20.8459348562
23
5.5
33
0
0
SOLID
5
62
100
AcDbEntity
8
deck dimensions
6
CONTINUOUS
62
7
370
0
100
AcDbTrace
10
20.9291917877
20
-6.60210106193e-017
30
0
11
20.8459348562
21
0.5
31
0
12
21.0124487193
22
0.5
32
0
13
21.0124487193
23
0.5
33
0
0
MTEXT
5
63
100
AcDbEntity
8
deck dimensions
6
CONTINUOUS
62
7
370
0
100
AcDbMText
10
20.5541917877
20
3
30
0
40
0.5
41
1.55555555556
71
5
72
1
1
6.000
7
standard
210
0
220
0
230
1
50
90
73
2
44
1
0
LINE
5
64
100
AcDbEntity
8
deck dimensions
6
CONTINUOUS
62
7
370
0
100
AcDbLine
10
16.660924281
20
6
11
21.1791917877
21
6
0
LINE
5
65
100
AcDbEntity
8
deck dimensions
6
CONTINUOUS
62
7
370
0
100
AcDbLine
10
20.1250286664
20
-3.06151588456e-017
11
21.1791917877
21
-1.2725132831e-016
0
ENDBLK
5
53
330
51
100
AcDbEntity
8
0
100
AcDbBlockEnd
0
BLOCK
5
55
330
54
100
AcDbEntity
8
0
100
AcDbBlockBegin
2
*D2
70
1
10
0
20
0
3
*D2
1

0
LINE
5
66
100
AcDbEntity
8
deck dimensions
6
CONTINUOUS
62
7
370
0
100
AcDbLine
10
7.19084469152
20
6.19490813323
11
9.05479935108
21
9.00911418786
0
LINE
5
67
100
AcDbEntity
8
deck dimensions
6
CONTINUOUS
62
7
370
0
100
AcDbLine
10
9.05479935108
20
9.00911418786
11
11.2202760879
21
9.00911418786
0
SOLID
5
68
100
AcDbEntity
8
deck dimensions
6
CONTINUOUS
62
7
370
0
100
AcDbTrace
10
7.19084469152
20
6.19490813323
30
0
11
7.39753189191
21
6.65773868305
31
0
12
7.53635654795
22
6.56578988489
32
0
13
7.53635654795
23
6.56578988489
33
0
0
ENDBLK
5
56
330
54
100
AcDbEntity
8
0
100
AcDbBlockEnd
0
BLOCK
5
58
330
57
100
AcDbEntity
8
0
100
AcDbBlockBegin
2
*D3
70
1
10
0
20
0
3
*D3
1

0
LINE
5
69
100
AcDbEntity
8
deck dimensions
6
CONTINUOUS
62
7
370
0
100
AcDbLine
10
6.78139141613
20
-7.28107288889
11
8.655196939
21
-10.6360770632
0
LINE
5
6A
100
AcDbEntity
8
deck dimensions
6
CONTINUOUS
62
7
370
0
100
AcDbLine
10
8.655196939
20
-10.6360770632
11
10.4219278606
21
-10.6360770632
0
SOLID
5
6B
100
AcDbEntity
8
deck dimensions
6
CONTINUOUS
62
7
370
0
100
AcDbTrace
10
6.78139141613
20
-7.28107288889
30
0
11
7.09788628389
21
-7.67700560455
31
0
12
6.95250972632
22
-7.75819995852
32
0
13
6.95250972632
23
-7.75819995852
33
0
0
ENDBLK
5
59
330
57
100
AcDbEntity
8
0
100
AcDbBlockEnd
0
BLOCK
5
5B
330
5A
100
AcDbEntity
8
0
100
AcDbBlockBegin
2
*D1
70
1
10
0
20
0
3
*D1
1

0
LINE
5
6C
100
AcDbEntity
8
deck dimensions
6
CONTINUOUS
62
7
370
0
100
AcDbLine
10
-0.28989875927
20
-0.231919007416
11
-1.42050392042
21
-2.49312932972
0
LINE
5
6D
100
AcDbEntity
8
deck dimensions
6
CONTINUOUS
62
7
370
0
100
AcDbLine
10
-1.42050392042
20
-2.49312932972
11
-3.42080535939
21
-2.49312932972
0
SOLID
5
6E
100
AcDbEntity
8
deck dimensions
6
CONTINUOUS
62
7
370
0
100
AcDbTrace
10
-0.28989875927
20
-0.231919007416
30
0
11
-0.439038293598
21
-0.716366234627
31
0
12
-0.587972820441
22
-0.641898971205
32
0
13
-0.587972820441
23
-0.641898971205
33
0
0
ENDBLK
5
5C
330
5A
100
AcDbEntity
8
0
100
AcDbBlockEnd
0
BLOCK
5
5E
330
5D
100
AcDbEntity
8
0
100
AcDbBlockBegin
2
*D4
70
1
10
0
20
0
3
*D4
1

0
LINE
5
6F
100
AcDbEntity
8
deck dimensions
6
CONTINUOUS
62
7
370
0
100
AcDbLine
10
6.87074340533e-007
20
1.45909272159
11
20.0000286664
21
1.45909272159
0
SOLID
5
70
100
AcDbEntity
8
deck dimensions
6
CONTINUOUS
62
7
370
0
100
AcDbTrace
10
6.87074340533e-007
20
1.45909272159
30
0
11
0.500000687074
21
1.54234965314
31
0
12
0.500000687074
22
1.37583579004
32
0
13
0.500000687074
23
1.37583579004
33
0
0
SOLID
5
71
100
AcDbEntity
8
deck dimensions
6
CONTINUOUS
62
7
370
0
100
AcDbTrace
10
20.0000286664
20
1.45909272159
30
0
11
19.5000286664
21
1.37583579004
31
0
12
19.5000286664
22
1.54234965314
32
0
13
19.5000286664
23
1.54234965314
33
0
0
MTEXT
5
72
100
AcDbEntity
8
deck dimensions
6
CONTINUOUS
62
7
370
0
100
AcDbMText
10
10.0000146767
20
1.83409272159
30
0
40
0.5
41
1.94444444444
71
5
72
1
1
20.000
7
standard
210
0
220
0
230
1
50
0
73
2
44
1
0
LINE
5
73
100
AcDbEntity
8
deck dimensions
6
CONTINUOUS
62
7
370
0
100
AcDbLine
10
6.87074339103e-007
20
0.125
11
6.87074340826e-007
21
1.70909272159
0
LINE
5
74
100
AcDbEntity
8
deck dimensions
6
CONTINUOUS
62
7
370
0
100
AcDbLine
10
20.0000286664
20
0.125
11
20.0000286664
21
1.70909272159
0
ENDBLK
5
5F
330
5D
100
AcDbEntity
8
0
100
AcDbBlockEnd
0
ENDSEC
0
SECTION
2
ENTITIES
0
LINE
5
75
100
AcDbEntity
8
auxiliary
6
ByLayer
62
256
370
-1
100
AcDbLine
10
0
20
0
11
20
21
0
0
LINE
5
76
100
AcDbEntity
8
auxiliary
6
ByLayer
62
256
370
-1
100
AcDbLine
10
-2.88675134595
20
5
11
17.1132486541
21
5
0
LINE
5
77
100
AcDbEntity
8
auxiliary
6
ByLayer
62
256
370
-1
100
AcDbLine
10
2.88675134595
20
-5
11
22.8867513459
21
-5
0
LINE
5
78
100
AcDbEntity
8
auxiliary
6
ByLayer
62
256
370
-1
100
AcDbLine
10
10
20
60
11
10
21
0
0
LINE
5
79
100
AcDbEntity
8
auxiliary
6
ByLayer
62
256
370
-1
100
AcDbLine
10
-4.62350384431
20
8.00814356733
11
-4.62350384431
21
0
0
CIRCLE
5
7A
100
AcDbEntity
8
auxiliary
6
ByLayer
62
256
370
-1
100
AcDbCircle
10
10
20
-50
40
43
0
LINE
5
7B
100
AcDbEntity
8
auxiliary
6
ByLayer
62
256
370
-1
100
AcDbLine
10
25.7716656079
20
-9.99681807714
11
16.3265716926
21
6.36256446642
0
LINE
5
7C
100
AcDbEntity
8
auxiliary
6
ByLayer
62
256
370
-1
100
AcDbLine
10
4.26337345624
20
-7.38437943785
11
-4.62350384431
21
8.00814356733
0
LINE
5
7D
100
AcDbEntity
8
auxiliary
6
ByLayer
62
256
370
-1
100
AcDbLine
10
25.7716656079
20
0
11
25.7716656079
21
-9.99681807714
0
LINE
5
7E
100
AcDbEntity
8
auxiliary
6
ByLayer
62
256
370
-1
100
AcDbLine
10
10
20
0
11
10
21
-50
0
LINE
5
7F
100
AcDbEntity
8
variation distances
6
ByLayer
62
256
370
-1
100
AcDbLine
10
24
20
0
11
24
21
-9.34289729949
0
LINE
5
80
100
AcDbEntity
8
variation distances
6
ByLayer
62
256
370
-1
100
AcDbLine
10
22
20
0
11
22
21
-8.70835435587
0
LINE
5
81
100
AcDbEntity
8
variation distances
6
ByLayer
62
256
370
-1
100
AcDbLine
10
20
20
0
11
20
21
-8.17895266735
0
LINE
5
82
100
AcDbEntity
8
variation distances
6
ByLayer
62
256
370
-1
100
AcDbLine
10
18
20
0
11
18
21
-7.75073965144
0
LINE
5
83
100
AcDbEntity
8
variation distances
6
ByLayer
62
256
370
-1
100
AcDbLine
10
16
20
0
11
16
21
-7.42066228791
0
LINE
5
84
100
AcDbEntity
8
variation distances
6
ByLayer
62
256
370
-1
100
AcDbLine
10
14
20
0
11
14
21
-7.18645074278
0
LINE
5
85
100
AcDbEntity
8
variation distances
6
ByLayer
62
256
370
-1
100
AcDbLine
10
12
20
0
11
12
21
-7.04653681017
0
LINE
5
86
100
AcDbEntity
8
variation distances
6
ByLayer
62
256
370
-1
100
AcDbLine
10
8
20
0
11
8
21
-7.04653681017
0
LINE
5
87
100
AcDbEntity
8
variation distances
6
ByLayer
62
256
370
-1
100
AcDbLine
10
6
20
0
11
6
21
-7.18645074278
0
LINE
5
88
100
AcDbEntity
8
variation distances
6
ByLayer
62
256
370
-1
100
AcDbLine
10
4
20
0
11
4
21
-7.42066228791
0
LINE
5
89
100
AcDbEntity
8
variation distances
6
ByLayer
62
256
370
-1
100
AcDbLine
10
2
20
0
11
2
21
-7.75073965144
0
LINE
5
8A
100
AcDbEntity
8
variation distances
6
ByLayer
62
256
370
-1
100
AcDbLine
10
0
20
0
11
0
21
-8.17895266735
0
LINE
5
8B
100
AcDbEntity
8
variation distances
6
ByLayer
62
256
370
-1
100
AcDbLine
10
-2
20
0
11
-2
21
-8.70835435587
0
LINE
5
8C
100
AcDbEntity
8
variation distances
6
ByLayer
62
256
370
-1
100
AcDbLine
10
-4
20
0
11
-4
21
-9.34289729949
0
LINE
5
8D
100
AcDbEntity
8
variation distances
6
ByLayer
62
256
370
-1
100
AcDbLine
10
10
20
0
11
10
21
-7
0
LINE
5
8E
100
AcDbEntity
8
variation distances
6
ByLayer
62
256
370
-1
100
AcDbLine
10
25.7716656079
20
0
11
25.7716656079
21
-9.99681807714
0
ARC
5
8F
100
AcDbEntity
8
deck
6
ByLayer
62
256
370
-1
100
AcDbCircle
10
10
20
-50
40
43
100
AcDbArc
50
68.4826520232
51
97.6666832879
0
LINE
5
90
100
AcDbEntity
8
auxiliary
6
ByLayer
62
256
370
-1
100
AcDbLine
10
0
20
-3.30294738893e-012
11
-10
21
0
0
LINE
5
91
100
AcDbEntity
8
auxiliary
6
ByLayer
62
256
370
-1
100
AcDbLine
10
20
20
0
11
30
21
0
0
LINE
5
92
100
AcDbEntity
8
auxiliary
6
ByLayer
62
256
370
-1
100
AcDbLine
10
-4.62350384428
20
8.00814356728
11
25.7716656079
21
8.34484958926
0
LINE
5
93
100
AcDbEntity
8
auxiliary
6
ByLayer
62
256
370
-1
100
AcDbLine
10
-4.62350384431
20
-9.56297321371
11
25.7716656079
21
-9.99681807715
0
ARC
5
94
100
AcDbEntity
8
deck dimensions
6
ByLayer
62
256
370
-1
100
AcDbCircle
10
-1.9082499974e-012
20
0
40
3.94081125883
100
AcDbArc
50
120
51
180
0
SOLID
5
95
100
AcDbEntity
8
deck dimensions
6
ByLayer
62
256
370
-1
100
AcDbTrace
10
-1.97040562942
20
3.41284266166
30
0
11
-2.34058249958
21
3.06657571053
31
0
12
-2.43281401467
22
3.20521269778
32
0
13
-2.43281401467
23
3.20521269778
33
0
0
SOLID
5
96
100
AcDbEntity
8
deck dimensions
6
ByLayer
62
256
370
-1
100
AcDbTrace
10
-3.94081125883
20
4.82594250677e-016
30
0
11
-3.99220262815
21
0.504272390491
31
0
12
-3.82602371774
22
0.493716049024
32
0
13
-3.82602371774
23
0.493716049024
33
0
0
MTEXT
5
97
100
AcDbEntity
8
deck dimensions
6
ByLayer
62
256
370
-1
100
AcDbMText
10
-3.52109583714
20
2.03290562941
30
0
40
0.5
41
1.88888888889
71
8
72
1
1
60.00%%D
7
standard
210
0
220
0
230
1
50
420
73
2
44
1
0
LEADER
5
98
100
AcDbEntity
8
deck dimensions
6
ByLayer
62
256
370
-1
100
AcDbLeader
3
Standard
71
1
72
0
73
3
74
0
75
0
40
1
41
10
76
3
76
3
10
-0.28989875927
20
-0.231919007416
30
0
10
-1.42050392042
20
-2.49312932972
30
0
10
-3.42080535939
20
-2.49312932972
30
0
0
MTEXT
5
99
100
AcDbEntity
8
deck dimensions
6
ByLayer
62
256
370
-1
100
AcDbMText
10
-8.14615513549
20
-2.20323057045
30
0
40
0.5
41
4.26388878289
71
1
72
1
1
STATION 10m\P(X=0, Y=0)
7
standard
210
0
220
0
230
1
50
0
73
2
44
1
0
CIRCLE
5
9A
100
AcDbEntity
8
auxiliary
6
ByLayer
62
256
370
-1
100
AcDbCircle
10
10
20
60
40
54
0
LINE
5
9B
100
AcDbEntity
8
deck
6
ByLayer
62
256
370
-1
100
AcDbLine
10
25.7717
20
-9.99682
11
16.3215564338
21
6.37129570599
0
ARC
5
9C
100
AcDbEntity
8
deck
6
ByLayer
62
256
370
-1
100
AcDbCircle
10
10
20
60
40
54
100
AcDbArc
50
254.280480306
51
276.722795073
0
CIRCLE
5
9D
100
AcDbEntity
8
variation distances
6
ByLayer
62
256
370
-1
100
AcDbCircle
10
10
20
-50
40
43
0
CIRCLE
5
9E
100
AcDbEntity
8
variation distances
6
ByLayer
62
256
370
-1
100
AcDbCircle
10
10
20
60
40
54
0
LINE
5
9F
100
AcDbEntity
8
variation distances
6
ByLayer
62
256
370
-1
100
AcDbLine
10
2
20
0
11
2
21
6.59588030873
0
LINE
5
A0
100
AcDbEntity
8
variation distances
6
ByLayer
62
256
370
-1
100
AcDbLine
10
4
20
0
11
4
21
6.33436854001
0
LINE
5
A1
100
AcDbEntity
8
variation distances
6
ByLayer
62
256
370
-1
100
AcDbLine
10
6
20
0
11
6
21
6.14835192865
0
LINE
5
A2
100
AcDbEntity
8
variation distances
6
ByLayer
62
256
370
-1
100
AcDbLine
10
14
20
0
11
14
21
6.14835192865
0
LINE
5
A3
100
AcDbEntity
8
variation distances
6
ByLayer
62
256
370
-1
100
AcDbLine
10
16
20
0
11
16
21
6.33436854001
0
LINE
5
A4
100
AcDbEntity
8
variation distances
6
ByLayer
62
256
370
-1
100
AcDbLine
10
18
20
0
11
18
21
6.59588030873
0
LINE
5
A5
100
AcDbEntity
8
variation distances
6
ByLayer
62
256
370
-1
100
AcDbLine
10
20
20
0
11
20
21
6.93400335431
0
LINE
5
A6
100
AcDbEntity
8
variation distances
6
ByLayer
62
256
370
-1
100
AcDbLine
10
22
20
0
11
22
21
7.35021367565
0
LINE
5
A7
100
AcDbEntity
8
variation distances
6
ByLayer
62
256
370
-1
100
AcDbLine
10
24
20
0
11
24
21
7.84638075838
0
LINE
5
A8
100
AcDbEntity
8
variation distances
6
ByLayer
62
256
370
-1
100
AcDbLine
10
25.7716656079
20
0
11
25.7716656079
21
8.35453007327
0
LINE
5
A9
100
AcDbEntity
8
variation distances
6
ByLayer
62
256
370
-1
100
AcDbLine
10
-4
20
0
11
-4
21
7.84638
0
LINE
5
AA
100
AcDbEntity
8
variation distances
6
ByLayer
62
256
370
-1
100
AcDbLine
10
-2
20
0
11
-2
21
7.35021
0
LINE
5
AB
100
AcDbEntity
8
variation distances
6
ByLayer
62
256
370
-1
100
AcDbLine
10
0
20
0
11
0
21
6.934
0
LINE
5
AC
100
AcDbEntity
8
variation distances
6
ByLayer
62
256
370
-1
100
AcDbLine
10
8
20
0
11
8
21
6.03705
0
LINE
5
AD
100
AcDbEntity
8
variation distances
6
ByLayer
62
256
370
-1
100
AcDbLine
10
12
20
0
11
12
21
6.03705
0
LINE
5
AE
100
AcDbEntity
8
variation distances
6
ByLayer
62
256
370
-1
100
AcDbLine
10
10
20
0
11
10
21
6
0
MTEXT
5
AF
100
AcDbEntity
8
deck dimensions
6
ByLayer
62
256
370
-1
100
AcDbMText
10
10.8162959841
20
-10.3912343233
30
0
40
0.5
41
13.1111109496
71
1
72
1
1
RIGHT EDGE PARAMETRIC VARIATION\P(ARC OF CIRCLE WITH CENTER AT\PX=10m , Y=-50m AND RADIUS OF 43m)
7
standard
210
0
220
0
230
1
50
0
73
2
44
1
0
MTEXT
5
B0
100
AcDbEntity
8
deck dimensions
6
ByLayer
62
256
370
-1
100
AcDbMText
10
11.5191803231
20
9.25479135669
30
0
40
0.5
41
12.3472220607
71
1
72
1
1
LEFT EDGE PARAMETRIC VARIATION\P(ARC OF CIRCLE WITH CENTER AT\PX=10m, Y=60m AND RADIUS OF 54m)
7
standard
210
0
220
0
230
1
50
0
73
2
44
1
0
LEADER
5
B1
100
AcDbEntity
8
deck dimensions
6
ByLayer
62
256
370
-1
100
AcDbLeader
3
Standard
71
1
72
0
73
3
74
0
75
0
40
1
41
10
76
3
76
3
10
7.19084469152
20
6.19490813323
30
0
10
9.05479935108
20
9.00911418786
30
0
10
11.2202760879
20
9.00911418786
30
0
0
LEADER
5
B2
100
AcDbEntity
8
deck dimensions
6
ByLayer
62
256
370
-1
100
AcDbLeader
3
Standard
71
1
72
0
73
3
74
0
75
0
40
1
41
10
76
3
76
3
10
6.78139141613
20
-7.28107288889
30
0
10
8.655196939
20
-10.6360770632
30
0
10
10.4219278606
20
-10.6360770632
30
0
0
ARC
5
B3
100
AcDbEntity
8
deck dimensions
6
ByLayer
62
256
370
-1
100
AcDbCircle
10
20.0000286664
20
-0
40
8.54397690415
100
AcDbArc
50
300.00001984
51
0
0
SOLID
5
B4
100
AcDbEntity
8
deck dimensions
6
ByLayer
62
256
370
-1
100
AcDbTrace
10
24.2720196807
20
-7.39929956904
30
0
11
24.6538127679
21
-7.0658842796
31
0
12
24.7412530077
22
-7.20759197544
32
0
13
24.7412530077
23
-7.20759197544
33
0
0
SOLID
5
B5
100
AcDbEntity
8
deck dimensions
6
ByLayer
62
256
370
-1
100
AcDbTrace
10
28.5440055705
20
0
30
0
11
28.6125987618
21
-0.50222175457
31
0
12
28.4461561757
22
-0.49735019109
32
0
13
28.4461561757
23
-0.49735019109
33
0
0
MTEXT
5
B6
100
AcDbEntity
8
deck dimensions
6
ByLayer
62
256
370
-1
100
AcDbMText
10
27.2910772681
20
-4.20948718971
30
0
40
0.5
41
1.88888888889
71
8
72
1
1
60.00%%D
7
standard
210
0
220
0
230
1
50
60.0000099201
73
2
44
1
0
MTEXT
5
B7
100
AcDbEntity
8
deck dimensions
6
ByLayer
62
256
370
-1
100
AcDbMText
10
25.2819352784
20
2.44663889791
30
0
40
0.5
41
3.65277767178
71
5
72
1
1
BASE DECK\PWIDTH
7
standard
210
0
220
0
230
1
50
90
73
2
44
1
0
LINE
5
B8
100
AcDbEntity
8
variation distances
6
ByLayer
62
256
370
-1
100
AcDbLine
10
-4.6301337571
20
0
11
-4.6301337571
21
8.01962691314
0
LINE
5
B9
100
AcDbEntity
8
variation distances
6
ByLayer
62
256
370
-1
100
AcDbLine
10
-4.6301337571
20
0
11
-4.6301337571
21
-9.56537144663
0
CIRCLE
5
BA
100
AcDbEntity
8
girders auxiliary
6
ByLayer
62
256
370
-1
100
AcDbCircle
10
10
20
-50
40
46.5
0
LINE
5
BB
100
AcDbEntity
8
girders auxiliary
6
ByLayer
62
256
370
-1
100
AcDbLine
10
-4.6301337571
20
0.5
11
25.7716656079
21
0.5
0
LINE
5
BC
100
AcDbEntity
8
girders auxiliary
6
ByLayer
62
256
370
-1
100
AcDbLine
10
-4.6301337571
20
-1.5
11
25.7716656079
21
-1.5
0
CIRCLE
5
BD
100
AcDbEntity
8
girders auxiliary
6
ByLayer
62
256
370
-1
100
AcDbCircle
10
10
20
60
40
55.5
0
CIRCLE
5
BE
100
AcDbEntity
8
girders auxiliary
6
ByLayer
62
256
370
-1
100
AcDbCircle
10
10
20
60
40
57.5
0
CIRCLE
5
BF
100
AcDbEntity
8
girders auxiliary
6
ByLayer
62
256
370
-1
100
AcDbCircle
10
10
20
-50
40
44.5
0
ARC
5
C0
100
AcDbEntity
8
girders
6
ByLayer
62
256
370
-1
100
AcDbCircle
10
10
20
60
40
55.5
100
AcDbArc
50
255.847
51
277.387
0
LINE
5
C1
100
AcDbEntity
8
girders
6
ByLayer
62
256
370
-1
100
AcDbLine
10
-0.288675
20
0.5
11
19.7114
21
0.5
0
LINE
5
C2
100
AcDbEntity
8
girders
6
ByLayer
62
256
370
-1
100
AcDbLine
10
0.866025
20
-1.5
11
20.8661
21
-1.5
0
ARC
5
C3
100
AcDbEntity
8
girders
6
ByLayer
62
256
370
-1
100
AcDbCircle
10
10
20
-50
40
46.5
100
AcDbArc
50
73.6245
51
99.4275
0
ARC
5
C4
100
AcDbEntity
8
girders
6
ByLayer
62
256
370
-1
100
AcDbCircle
10
10
20
-50
40
44.5
100
AcDbArc
50
70.8512
51
98.4579
0
LINE
5
C5
100
AcDbEntity
8
deck dimensions (dash dot)
6
ByLayer
62
256
370
-1
100
AcDbLine
10
-10
20
0
11
30
21
0
0
TEXT
5
C6
100
AcDbEntity
8
girders dimensions
6
ByLayer
62
256
370
-1
100
AcDbText
10
-0.187063169435
20
3.77867602258
30
0
40
0.5
1
G2
50
0
41
1
51
0
7
STANDARD
71
0
210
0
220
0
230
1
100
AcDbText
0
TEXT
5
C7
100
AcDbEntity
8
girders dimensions
6
ByLayer
62
256
370
-1
100
AcDbText
10
-0.8604905794
20
5.98602142192
30
0
40
0.5
1
G1
50
0
41
1
51
0
7
STANDARD
71
0
210
0
220
0
230
1
100
AcDbText
0
TEXT
5
C8
100
AcDbEntity
8
girders dimensions
6
ByLayer
62
256
370
-1
100
AcDbText
10
2.73112227375
20
-1.08496638272
30
0
40
0.5
1
G4
50
0
41
1
51
0
7
STANDARD
71
0
210
0
220
0
230
1
100
AcDbText
0
LINE
5
C9
100
AcDbEntity
8
deck
6
ByLayer
62
256
370
-1
100
AcDbLine
10
4.26337
20
-7.38438
11
-4.63013
21
8.01963
0
TEXT
5
CA
100
AcDbEntity
8
girders dimensions
6
ByLayer
62
256
370
-1
100
AcDbText
10
5.79895825248
20
-6.43497302856
30
0
40
0.5
1
G6
50
0
41
1
51
0
7
STANDARD
71
0
210
0
220
0
230
1
100
AcDbText
0
TEXT
5
CB
100
AcDbEntity
8
girders dimensions
6
ByLayer
62
256
370
-1
100
AcDbText
10
3.4419623176
20
-3.55420021926
30
0
40
0.5
1
G5
50
0
41
1
51
0
7
STANDARD
71
0
210
0
220
0
230
1
100
AcDbText
0
DIMENSION
5
CC
100
AcDbEntity
8
deck dimensions
6
ByLayer
62
256
370
-1
100
AcDbDimension
2
*D4
10
20.0000286664
20
1.45909272159
30
0
11
10.0000146767
21
1.83409272159
31
0
70
32
71
5
72
0
3
Standard
53
0
210
0
220
0
230
1
100
AcDbAlignedDimension
13
6.87074338957e-007
23
0
33
0
14
20.0000286664
24
0
34
0
100
AcDbRotatedDimension
0
TEXT
5
CD
100
AcDbEntity
8
girders dimensions
6
ByLayer
62
256
370
-1
100
AcDbText
10
1.68356852491
20
0.710840043853
30
0
40
0.5
1
G3
50
0
41
1
51
0
7
STANDARD
71
0
210
0
220
0
230
1
100
AcDbText
0
ARC
5
CE
100
AcDbEntity
8
girders
6
ByLayer
62
256
370
-1
100
AcDbCircle
10
10
20
60
40
57.5
100
AcDbArc
50
257.751
51
278.215
0
MTEXT
5
CF
100
AcDbEntity
8
girders dimensions
6
ByLayer
62
256
370
-1
100
AcDbMText
10
-10.303088629
20
-4.53043613475
30
0
40
0.5
41
8.90277777778
71
1
72
1
1
GIRDER GEOMETRY:\P\PG1: Xc=10, Yc=60, R=55.5\PG2: Xc=10, Yc=60, R=57.5\PG3: Y=0.5\PG4: Y=-1.5\PG5: Xc=10, Yc=-50, R=46.5\PG6: Xc=10, Yc=-50, R=44.5\P\PXc ... ARC X CENTER\PYc ... ARC Y CENTER\PR ... ARC RADIUS
7
STANDARD
210
0
220
0
230
1
50
0
73
2
44
1
0
LINE
5
D0
100
AcDbEntity
8
deck (dashed)
6
ByLayer
62
256
370
-1
100
AcDbLine
10
-3.4640972978
20
6
11
16.535924281
21
6
0
DIMENSION
5
D1
100
AcDbEntity
8
deck dimensions
6
ByLayer
62
256
370
-1
100
AcDbDimension
2
*D5
10
20.9291917877
20
-1.13785906211e-016
30
0
11
20.5541917877
21
3
31
0
70
32
71
5
3
Standard
53
0
210
0
220
0
230
1
100
AcDbAlignedDimension
13
16.535924281
23
6
33
0
14
20.0000286664
24
0
34
0
50
90
100
AcDbRotatedDimension
0
LINE
5
D2
100
AcDbEntity
8
deck dimensions
6
ByLayer
62
256
370
-1
100
AcDbLine
10
24.3162060312
20
6
11
24.3162060312
21
-7
0
SOLID
5
D3
100
AcDbEntity
8
deck dimensions
6
ByLayer
62
256
370
-1
100
AcDbTrace
10
24.3162060312
20
6
30
0
11
24.3994629628
21
5.5
31
0
12
24.2329490997
22
5.5
32
0
13
24.2329490997
23
5.5
33
0
0
SOLID
5
D4
100
AcDbEntity
8
deck dimensions
6
ByLayer
62
256
370
-1
100
AcDbTrace
10
24.3162060312
20
-7
30
0
11
24.2329490997
21
-6.5
31
0
12
24.3994629628
22
-6.5
32
0
13
24.3994629628
23
-6.5
33
0
0
LINE
5
D5
100
AcDbEntity
8
deck dimensions
6
ByLayer
62
256
370
-1
100
AcDbLine
10
16.660924281
20
6
11
24.5662060312
21
6
0
LINE
5
D6
100
AcDbEntity
8
deck dimensions
6
ByLayer
62
256
370
-1
100
AcDbLine
10
24.1664837826
20
-7
11
24.5662060312
21
-7
0
MTEXT
5
D7
100
AcDbEntity
8
deck dimensions
6
ByLayer
62
256
370
-1
100
AcDbMText
10
23.813394173
20
2.56748459789
30
0
40
0.5
41
1.83333333333
71
5
72
1
1
13.000
7
standard
210
0
220
0
230
1
50
90
73
2
44
1
0
LINE
5
D8
100
AcDbEntity
8
deck (dashed)
6
ByLayer
62
256
370
-1
100
AcDbLine
10
4.0414483361
20
-7
11
24.0414837826
21
-7
0
ENDSEC
0
SECTION
2
OBJECTS
0
DICTIONARY
5
C
330
0
100
AcDbDictionary
281
1
3
ACAD_GROUP
350
D
0
DICTIONARY
5
D
330
C
100
AcDbDictionary
281
1
0
ENDSEC
0
EOF
